Flac Mega Nz

The mediafire link is uploaded and shared by Akeldama. Just enter an artist name or your favorite file name into the search engine and it is possible that Megaupload Search will have what you are looking for. sweet ARMS - DATE A LIVE II OP - Trust in you [FLAC] + Scan Track list : 1. Total Size: 4. XYplorer is a file manager for Windows. Lista de canciones: 01. nz/#F!jVkT1TJC!1XElDYy32DuaO-WjdKMK3A A Hard Day's Night (Flac): mega. zip archive downloading links from mega. com, yandex oppure rusfolder. You are using an unsupported browser. flac 20 MB; 02 English Beat, The -Twist & Crawl. Buy Mars Audiac Quintet (Expanded Edition) by Stereolab on Bleep. Love Poem 03. Disc 1 - The Many Faces Of The Smiths. I'm Okay 06. 5 GB | Uploaded by shamil11 on 2017-05-25 22:05:04 UTC | #46153. February 16, 2018 Buckethead Discography - 1991-2012 [FLAC] 15 DOWNLOAD. Recorded in secret to avoid interference from the record label, the follow-up to Pretty Hate Machine takes an unexpected abrupt turn into sheer aggression. Shop for Vinyl, CDs and more from NZ at the Discogs Marketplace. zip from mega. a september 6, 1970. Belfegor 05. 2 in D major, Op. Newton's Apple 08. Until I found ViceVersa, I strived to find a program like this for years!" P. Lista de canciones: 01. Browse an expansive catalogue of FLAC tracks in all genres and moods. 8MHz/64fs Download DSD Multichannel 2. 720 Aleación,0. Sucio Poder 04. Ahora les comparto este disco remasterizado de una de mis bandas favoritas: AC/DC, para mi una de las mejores bandas de rock. com, yandex or rusfolder. Registered users enjoy an extra 10% free IP quota allowance. 16-bit FLAC Preview Trio Sonata in D Minor, Op. net Free lossless and surround music download. Quality: FLAC 16 bit / 44. FLAC Music Download, FLAC Download Sites - indoflac. Digital FLAC Downloads. MEGA was founded by the notorious Kim Dotcom in 2013. Deezloader Remix (Recommended) Available for macOS, Linux, Windows. 8MHz/64fs Download DSD Multichannel 2. nz, mediafire. He’s no longer associated with MEGA, but the company lives on and advertises as. nz , mediafire. com, yandex oppure rusfolder. Description File format:. 5 GB | Uploaded by shamil11 on 2017-05-25 22:05:04 UTC | #46153. Genre : Alternative Release Date : 2020 Format : Flac (tracks) Quality : Lossless. High quality The Angels music downloads from 7digital New Zealand. Tengo otros ost también en mi impulsión de google si usted la necesita comente por favor le proporcionará el acoplamiento. Lossless | FLAC | MEGA. Play any track, anytime with no ads, and listen offline. 03 Trust in you (Another Version) | 27. Sell Me a Coat 03. Thursday, June 7, 2018. Ice Cream Tubs. Zoo Station 2. com, yandex or rusfolder. The Free Hard Music community also provides a free Desert rock, Stoner metal music downloads of Astroqueen Discography with full MP3 MP3 128 kbit/s album in. NZ though, because it took me 8 seconds to start listening a song (MP3 or FLAC), compared to 3 while using Google Drive. Digital FLAC Downloads. zip archive downloading links from mega. Estas Muerto 07. Nirvana Flac Downloads - Free download as Text File (. Viejos Patéticos. ‎Read reviews, compare customer ratings, see screenshots and learn more about Flacbox: FLAC player equalizer. Maldito Po. Discography with full FLAC album in. If you need more precise search, use the option «Advanced. Heavy metal Dokken - Tooth & Nail (Japanese Remastered SHM-CD. flac files, using Windows. It’s fast, light, and portable. se/?page=view&tid=549856 MP3: http://mfi. Steenbrink for Sheng & Chamber Ensemble) Trio Sonata in D Minor, Op. The Free Hard Music community also provides a free Christian rock, Glam metal, Heavy metal music downloads of Stryper Discography with full MP3 FLAC album in. JumpShare is the file sharing service that lets you view more than 200 file formats. sweet ARMS - DATE A LIVE II OP - Trust in you [FLAC] + Scan Track list : 1. Red (Auditory Impression) [FLAC]. In the meanwhile have a look at other good site like 1337 or Torrentz. si en tu paÍs existen leyes en contra del intercambio de archivos, tu y solo tÚ eres el unico responsable, el webmaster se deslinda de toda responsabilidad. YO NO TENGO NADA feat. Come And Buy My Toys (The Original Stereo Album Mix) 11. High quality Jim Reeves music downloads from 7digital Canada. JumpShare is the file sharing service that lets you view more than 200 file formats. nz on reddit. Unicorn produced three box sets: Get Back Camera B Rolls UC-S001-S024 - 24 disc box Get Back Camera B Rolls Vol. com Mega folder with over 40 free mental health resources (books, worksheets, workbooks, guides) to. Download Shin Sekaiju no Meikyuu Millennium no Shoujo Original Soundtrack [FLAC]. But from this dude’s perspective, it was a truly special night to see a band of this quality in an intimate setting like this. Oct 17, 2018: mobile_privacy. com, yandex or rusfolder. nz: Webwarez disguised as Cloud Storage Movies, Music, and Software at Mega. Ben Noble - Where the Light Comes In (2020) FLAC. zip archive downloading links from mega. A Song For You Steve Tyrell: 8. Both DVDs combined are nearly 9 GB total, meaning that people without paid accounts on MEGA will have to download it in at least two spurts due to MEGA's download limit. Enrique Iglesias - Bailamos - CDM1 - FLAC Tracklist Bailamos (album version) Bailamos (Eric Morillo Vocal) Bailamos (Fernando Garibay Latin Edit). 67 / Symphony No. INFO Codec: 44. We use cookies for various purposes including analytics. nz, mediafire. zip archive downloading links from mega. There is a very active forum, classified ads, and music battle system. nz 02 September 2016. 1st - All rips must be in flac (original cd or digital download flac) 2nd - i upload the maxis and cds here to mega. Music Files. No ridiculous queues!. º Título Escritor(es) Productor Duración 1. Ben Noble - Where the Light Comes In (2020) FLAC. Estas Muerto 07. __group__ ticket summary component version type severity owner status created _changetime _description _reporter Bugs paradize Release 22336 Preroll breaking pulse audio Audio: ALSA / PulseAudio master git defect normal Thomas Guillem new 2019-05-23T10:44:59+02:00 2019-05-23T10:52:27+02:00 "--no-fastseek triggers interleave mitigation and sends up to 15sec from the same interleave before seeking. A leaked version of Winamp 5. MP3 rips might exist. In October 2005, Deftones issued a two-disc set of B-sides and rarities before returning with a new studio full-length, Saturday Night Wrist, a year later. rar"-File Format komprimiert wurde. Billy Joel - 52nd Street (Remastered 24k Gold) (2010) FLAC rar and zip The Free Hard Music community also provides a free Pop rock music downloads of Billy Joel Discography with full MP3 FLAC album in. Downloads J-Rock J-Pop Music MP3/AAC/FLAC/ALAC. Información AC/DC Live es un álbum en vivo de la banda de hard rock Australiana AC/DC lanzada en 1992, tanto como un álbum solo y como álbum doble (conocido como AC/DC Live: 2 CD Collector's Edition). flac Bitrate: ~800kbps Size: 299 mb TRACKLIST: 01 - A HEARTY WELCOME 02 - IN THE BACK OF MY MIND 03 - DREAMER'S DREAM 04 - HOPE 05 - A GENTLE BREEZE 06 - THE WAY I BELIEVE. Recommended are five surround speakers, a subwoofer, and two height channels. Claim your free 50GB now!. We share Hard rock, Heavy metal. I can reproduce this more often than not, and fairly consistently, but not 100% of the time. FLAC CD / Soul / Funk / RnB. com, yandex or rusfolder. flac 22 David deMaria - Maneras de. nz] has joined #ubuntu === John_W3GQJ [[email protected] 0 % Test CRC E140D8BA Copy CRC E140D8BA Track not present in AccurateRip database Copy OK Track 3 Filename D:\Music\EAC Rips\Ne Obliviscaris- Hiraeth (2015) [FLAC]\03 Beyond the hourglass. " I just downloaded them, and foobar plays them fine, even via spdif out to Oritek Zhaolu DAC. Description File format:. Fisheye Lens 08. nz: Webwarez disguised as Cloud Storage Movies, Music, and Software at Mega. nz, mediafire. flac 17 Baby K - Buenos Aires. File Life: 30 days after no activity. Steenbrink for Sheng & Chamber Ensemble) Wu Wei / Holland Baroque 2019 From £0. com/?7jry3u6me9o4fj5. Enrique Iglesias - Bailamos - CDM1 - FLAC Tracklist Bailamos (album version) Bailamos (Eric Morillo Vocal) Bailamos (Fernando Garibay Latin Edit) Bailamos (Fernando Garibay Latin Mix) Bailamos (Groove Brothers Club Mix). Download flac 24bit 192khz mega co nz free shared files from DownloadJoy and other world's most popular shared hosts. el objetivo de este material solamente es promocionar al artista o autor original. 4 in B flat major, Op. File Life: 30 days after no activity. 5 in C minor, Op. nz/#!K2ognaBC!HgcxAS0AGMjXi_aBXYOu_PnLZ8jQEVetA4dFNNQNaOA no pretendo fomentar la pirateria , solo fomentar el. flac 15 Julieta Venegas, Miau Trío - Mujeres. level 2 [deleted] 1 point · 1 year ago. Soundtrack in FLAC audio format https://mega. 2 UC-S025-S034 - 10 disc box 12 Days At Twickenham UC-0125 / UC-0142 - 18 disc box. 1Khz>Flac Generation: VID1*>44. Estas Muerto 07. 6MHz/128fs Download DSD (Quad Rate) 11. Le lien Mediafire est mis en ligne et partagé par Saints69. 0 % Test CRC 054BED32 Copy CRC 054BED32 Cannot be verified as accurate (confidence 89) [9BC7AC84], AccurateRip returned [D101D9C2] Copy OK Track 8. Recommended are five surround speakers, a subwoofer, and two height channels. 0r484 **** Queen San Jose Arena July 14, 2019 H2Zoom Quality: B Now I'm Here Seven Seas of Rhye Keep Yourself Alive Hammer to Fall. 16-bit FLAC; Preview Mega Tree. Mujeres Vengan A Mi 11. Lossless FLAC music collection. Burman Mega FLAC Collection ~ 30. 🔥el mejor programa para descargar mÚsica🏅 a 320 kbps & flac(1411)🔥 para windows 7/8/8. nz 02 September 2016. Download macOS Catalina for an all‑new entertainment experience. Files are not deleted so frequently and they give you 10 Gb to upload your stuff. 2 de-click) Mega Download (This scarce LP was 'mint'. Soundtrack in FLAC audio format https://mega. Download Flacbox: FLAC player equalizer and enjoy it on your iPhone, iPad and iPod touch. I'd say it's no net gain. com, yandex or rusfolder. Pitbull - Culo ft. mega mega mega mega mega by rq, released 04 november 2013 1. 01 Glad To See You Go (1979-10-05 - Cork) 02 Silver Lining (1980-02-26 - Dublin) 03 The Speed Of Light (1980-02-26 - Dublin). zip archive downloading links from mega. Lo scanee con spek y al parecer todos llegan a 20hzasí que esos 320kbps son reales. a august 31, 1969 02. Why Are You Being Like This? 03. check it //mega. Click download file button or Copy flac 24bit 192khz mega co nz URL which shown in textarea when you clicked file title, and paste it into your browsers address bar. Deftones ended up peaking at number two on the Billboard 200, and the band took a well-deserved break for rest and side projects. Over The Hills And Far Away. TOOL - Fear Inoculum (Deluxe) (2019) [FLAC] 465 MB Arctic Monkeys Tranquility Base Hotel and Casino [2018] FLAC CD 265 MB Slipknot - We Are Not Your Kind (2019) [FLAC CD] 429 MB. 1st - All rips must be in flac (original cd or digital download flac) 2nd - i upload the maxis and cds here to mega. Mirando La Guerra Por Tv 02. Audio: FLAC CD / 44. com, yandex or rusfolder. MEGA provides free cloud storage with convenient and powerful always-on privacy. They are from broadcasts and sound wonderful. Rubber Band 04. ACDC - The Razors Edge (1990) [LOSSLESS FLAC] Download ACDC - The Razors Edge (1990) [LOSSLESS FLAC] at High Speed. nz links are no longer listed as malicious. INXS 1982-08-12 Caringbah Inn, Sydney,AU (Flac) INXS: Caringbah Inn, Sydney 12 August 1982 01 Intro 02 Night Of Rebellion 03 Soul Mistake 04 To Look At You. wav Peak level 98. merry go round 05. nz/#!SplxFICY!KGSeakrpT8L59Ea83hbaQbjiiHvpxOE0ZY9ir3e9FF0 Eye in the sky en DSD. nz, mediafire. Convert mp3, ogg, flac, wav, wma, aac, m4a MOD INFO: - Premium by default NOTE: - Uninstall the existing version before installing the hacked version. ) Royal Opera House Orchestra , Covent Garden conducted by Robert Irving EMI Angel 35521 (HMV CLP 1070) 1957 EMI pressing/matrices: 2XEA886 -2N / 2XEA887-2N. 1 kHz (Tracks) Performer: Lavern Baker Album: LaVern (Remastered) Published: 2020 Genre: Soul File Size:120 Mb. 0 % Test CRC 054BED32 Copy CRC 054BED32 Cannot be verified as accurate (confidence 89) [9BC7AC84], AccurateRip returned [D101D9C2] Copy OK Track 8. Alegría De Vivir 04. __group__ ticket summary component version type severity owner status created _changetime _description _reporter Bugs paradize Release 22336 Preroll breaking pulse audio Audio: ALSA / PulseAudio master git defect normal Thomas Guillem new 2019-05-23T10:44:59+02:00 2019-05-23T10:52:27+02:00 "--no-fastseek triggers interleave mitigation and sends up to 15sec from the same interleave before seeking. THE [email protected] CINDERELLA MASTER 026 MP3: http://www. Black Sabbath Ozzy Osbourne Tony Iommi Geezer Butler Official Black Sabbath Website. May 20, 2004 -- Conjugated linoleic acid (CLA) is a contender for the weight-loss miracle pill. 39 GB_Pirate most of files are lossy files 98% , these are mp3 to flac converted files. linkin park - hybrid theory [flac] (2000) Genre : Nu Metal, Rap Metal, Alternative Metal Released : October 24, 2000 Quality : Flac Lossless Tracklist : 1. flac 16 Alejandro Santamaria, Kurt - Encima De Mil. 2 in D major, Op. zip archive downloading links from mega. pdf), Text File (. JORGE MONCADA Recommended for you 4:57. nz, mediafire. Come And Buy My Toys (The Original Stereo Album Mix) 11. 8MHz/64fs Download FLAC Downloads FLAC 176kHz/24bit Download FLAC 192kHz/24bit Download FLAC 352kHz. Music Search. Buy Mars Audiac Quintet (Expanded Edition) by Stereolab on Bleep. The Beatles - Stereo Box Set (2009) [USB Limited Edition 24-44,1] FLAC (tracks) 24 bit/44,1 kHz | Time - 619:03 minutes | No Art | 7,32 GB 14 albums, 226 songs, over than 10 hours of Mu…. Just enter an artist name or your favorite file name into the search engine and it is possible that Megaupload Search will have what you are looking for. com, yandex or rusfolder. Listen to FLAC music in High Fidelity sound as if you were right in the recording studio. Steenbrink & T. By continuing to use Pastebin, you agree to our use of cookies as described in the Cookies Policy. Download K-Lite Codec Pack Mega. https://mega. Мы хотим, чтобы друзья, однокурсники, одноклассники, соседи и коллеги всегда. anand ( 1971) / ost vinyl rip flac free lossless audio codec on request music by : salil chowdhury lyricist : yog PREM GEET (1981) OST VINYL RIP LPMP3192KHZ PREM GEET ( 1981) OST VINYL RIP LPMP3192 KHZ Music India ‎- 2392 305, (FLAT RECORDING LIKE MY PREVIOUS RIPS. nz for a specific reason. se/?page=view&tid=549856 MP3: http://mfi. Esta es la tercera temporada de Attack on Titan. Lou Reed Firenze, Italy June 14, 1980 Lineage: tv or fm broadcast - ?- cd-r in trade - Nero wav - flac 6. The Danny Elfman & Tim Burton 25th Anniversary Music Box (2011) {17CD} Tracks + cue + log | 3% rar recovery. 7 X Track quality 100. Havana Moon Carlos Santana: 2. A leaked version of Winamp 5. ʀɪᴅᴅʟᴇꜱ It was hard to choose favorites between the albums produced by the incredibly-skilled Mega Drive, and I think this album is just beaten out by Hardwired V1. 9th Wonder & Big Remo) 144. 6 in F major, Op. Dokken - Tooth & Nail (Japanese Remastered SHM-CD) (2009) FLAC rar and zip metal music downloads of Dokken Discography with full MP3 FLAC album in. Should people struggle using mega. El mundo está gobernado por los titanes. By continuing to use Pastebin, you agree to our use of cookies as described in the Cookies Policy. That will not count as your "download" - until you. 720 Aleación,0. Earth Wind & Fire - Boogie Wonderland /WAV https://mega. international center, honolulu, hawaii u. Estos archivos se destacan por garantizar una calidad de audio sin pérdidas, motivo por el cual muchos usuarios lo prefieren. 23 - Club Band. Mega Tree The Angels 2019 From $10. Le lien Mediafire est mis en ligne et partagé par Saints69. sweet ARMS - DATE A LIVE II OP - Trust in you [FLAC] + Scan Track list : 1. udp://tracker. " I just downloaded them, and foobar plays them fine, even via spdif out to Oritek Zhaolu DAC. Justin Bieber) 143. 1974 (Flac) #46 THE JIMI HENDRIX EXPERIENCE - Royal Albert Hall, London (Flac) #113 The Clash - Last Gang In Town (Rarities 1976-84) Flac. 0 > CD Wave > FLAC Frontend > FLAC > MP3. 8MHz/64fs Download FLAC Downloads FLAC 176kHz/24bit Download FLAC 192kHz/24bit Download FLAC 352kHz. She's Got Medals (The. Separation Anxiety 02. com, yandex or rusfolder. High Quality Offical Soundtrack Inside (FLAC + Mp3) With MEGA Links « on: March 07, 2015, 10:15:49 PM » Here Is The Offical Soundtrack For Vampire The Masquerade Bloodlines, All 48 Songs, Listed Correctly, And Perfectly Renamed,. touch touch 4. Belfegor 05. Download Flacbox: FLAC player equalizer and enjoy it on your iPhone, iPad and iPod touch. La piba del Blockbuster. international center, honolulu, hawaii u. 16-bit FLAC Preview Trio Sonata in D Minor, Op. Download album by Dido - No Angel (2000) Flac. Lou Reed Firenze, Italy June 14, 1980 Lineage: tv or fm broadcast - ?- cd-r in trade - Nero wav - flac 6. mega mega mega mega mega by rq, released 04 november 2013 1. com, yandex or rusfolder. DVD VISION CLIPS COMPLETO [SITE EXTERNO PELO UTORRENT http://torrentking. FOR SALE; Michael Jackson - MEGA PACK /STEMS MULTI FORMAT FR B-52's - Love Shack / STEMS WAV FREE; Alice in Chains - Pack STEMS FLAC FREE; Alan Walker / 3 MULTIS WAV FREE; Dream Theater - Black Clouds and Silver Linings [f Adele - Rumour Has It / STEMS WAV FREE. :: Torrents Finder - Torrent Finder - torrents search engine for top torrents sites search. coppersurfer. 15MB TRACKLIST 01. If this is your first visit, be sure to check out the FAQ by clicking the link above. pheromone a 3. nz 26 December 2017. All published content are provided by non-affiliated third parties. nz/#F!YawDkI6a!qsBFjuEOJbH2gzv-ld1XUQ SOULS MUSIC COLECTION (MP3/320KPBS) https://mega. Ben Noble - Where the Light Comes In (2020) FLAC. In episode 12, the Queen Cosmos must break through a gauntlet of fire known as a Soul Zone, without roasting Princess Aurora in the process. Re: Thanks a lot for the awesome feedback :) The Skaro Hunting Society with Nanto as the spearhead are easily among the top in the Old School Anime Fansub club. flac files, using Windows. check it Reply Delete Replies. flac 18 Cazzu, Eladio Carrion, Noriel - Esquina. Thanks in advance. com is completely free, reliable and popular way to store files online. Play any track, anytime with no ads, and listen offline. Мы хотим, чтобы друзья, однокурсники, одноклассники, соседи и коллеги всегда. 1-win at SourceForge. Artist's name : Filter Title of album : Crazy Eyes The year it was released : 2016 Quality : 24bit 96kHz HDTracks FLAC. Exclusive early access to 360 Reality Audio tracks in our 360 by Deezer. Download MP3, WAV, FLAC, WAV (24-bit). zip archive downloading links from mega. Buy, preview and download over 30 million tracks in our store. Baby Rasta y Gringo – Los Cotizados (Flac) Descargar Mega N. flac 19 MB; 05 English Beat, The -Doors of Your Heart. Hello! Please login. Afterwards, he meets George Thorogood backstage and the two rock out to one of George’s classics. Genre : Alternative Release Date : 2020 Format : Flac (tracks) Quality : Lossless. Tengo otros ost también en mi impulsión de google si usted la necesita comente por favor le proporcionará el acoplamiento. sweet ARMS - DATE A LIVE II OP - Trust in you [FLAC] + Scan Track list : 1. "Apathy doesn't count. nz , mediafire. Not because of the app, I am sure, it's just that Google servers are faster. Tengo otros ost también en mi impulsión de google si usted la necesita comente por favor le proporcionará el acoplamiento. El tesoro de los inocentes 04. A blog about the discography of the band The Square/T-Square and, perhaps, other Jazz Fusion acts. The mediafire link is uploaded and shared by Akeldama. nz, mediafire. This question is for testing whether you are a human visitor and to prevent automated spam submissions. Claim your free 50GB now!. (27-03-2017, 08:10 PM) wheatthincabbage Wrote: Recently bought the newest Snail's House album, mp3 and FLAC. Update April 22: After we published this article we noticed that Mega. nz for a specific reason. los archivos de mega estan todos a 320kbps, a menos que diga lo contrario fijense que ya subi el album nuevo a mega, escuchenlo y si pueden comprenlo jeje **Actualicé el nuevo album, le agregué el arte y las canciones que le faltaban, en el link de mega. 2 - (WEB) - FLAC 01 Synad - I'm Your Woman (House Mix) 6:03 02 Euphoria - Tears of Pain 5:20 03 Vaffankulo - Destination 4:57. Quality: FLAC 24 bit / 44. ) DOWNLOAD (Passwo…. nz/#F!Wv4HHIKR The key is Xt7DR5esBYtsIgKGp7Mb7A Soundtrack in MP3 320kbps audio format. FLAC available for most, as well as MP3. The Danny Elfman & Tim Burton 25th Anniversary Music Box (2011) {17CD} Tracks + cue + log | 3% rar recovery. Email This //mega. sweet ARMS - DATE A LIVE II OP - Trust in you [FLAC] + Scan Track list : 1. If file is multipart don't forget to check all parts before downloading! 2. Over The Hills And Far Away. Kaoov November 12, 2019 at 11:40 PM. MD5 files use an algorithm that is based on the number of bits that a file should contain. com is completely free, reliable and popular way to store files online. com: Lots of JGB & Grateful Dead. CORE sonido hd flac espero lo disfruten https://mega. nz 26 December 2017. 1 record & EQ > WAV > FLAC Notes: Produced By Ross Robinson and Deftones. flac 21 Cyclo - La Corona. Hola a todos! les dejo esta espectacular colección de las obras de uno de los mejores compositores clásicos de la historia, espero que. Download K-Lite Codec Pack Mega. Vast Aire & Vordul Mega) 142. sweet ARMS - DATE A LIVE II OP - Trust in you [FLAC] + Scan Track list : 1. Lista de canciones: 01. 93 Rudolf Barshai/Symphony Orchestra, Joint Symphony Orchestra. Nirvana - 1992-08-30 - Reading, UK [SBD] [Flac] Transfer: Source VHS>VCR>Mini DV A/V>DV Passthrough>LPCM 2. Fleetwood Mac Fleetwood Mac: 3. com, yandex or rusfolder. Dokken - Tooth & Nail (Japanese Remastered SHM-CD) (2009) FLAC rar and zip metal music downloads of Dokken Discography with full MP3 FLAC album in. 8MHz/64fs Download DSD Multichannel 2. Newton's Apple 08. me/SorielHitachi. La communauté Free Hard Music propose aussi des téléchargements de musique de Metal gratuits de System of a Down La discographie est en FLAC l'album est une archive au format. The Danny Elfman & Tim Burton 25th Anniversary Music Box (2011) {17CD}. No files in this folder. Or create a free MEGA account. Shop for Vinyl, CDs and more from NZ at the Discogs Marketplace. [DD] Discografía Garbage 320 kbps [MEGA] Garbage es una banda de rock alternativo procedente de Madison, Estados Unidos y Edimburgo, Reino Unido formada en 1994. nz , mediafire. a september 6, 1970. Lord Lord Lord (feat. Buy, preview and download over 30 million tracks in our store. nz/#F!JGpV3aQR!1nGcMaxvrbczS. The Danny Elfman & Tim Burton 25th Anniversary Music Box (2011) {17CD} Tracks + cue + log | 3% rar recovery. Final Fantasy (OST) (Music Collection) Download Descargar Full Albums CDs Radio Tribute MEGA 1Fichier FLAC MP3 Gratis Free OST Original Soundtrack. germany july 1970 03. Over The Hills And Far Away. Amnesia 03. 04 Trust in you -. Following Government guidelines, the Mastermix team are all working from home and it’s business as usual. By continuing to use Pastebin, you agree to our use of cookies as described in the Cookies Policy. ) Royal Opera House Orchestra , Covent Garden conducted by Robert Irving EMI Angel 35521 (HMV CLP 1070) 1957 EMI pressing/matrices: 2XEA886 -2N / 2XEA887-2N. HDtracks is a high-resolution music platform for music lovers to download their favorite tracks in master studio quality. org:1337/announce: S: 7: L: 2: C: 199: U: 179d, 2hr, 48min ago: udp://tracker. 1 kHz (Tracks) Performer: Lavern Baker Album: LaVern (Remastered) Published: 2020 Genre: Soul File Size:120 Mb. Soundtrack in FLAC audio format https://mega. Music Files. La Free Hard Music community fornisce inoltre download gratis delle discografie delle X Japan con album completi in FLAC file archivio. Convert mp3, ogg, flac, wav, wma, aac, m4a MOD INFO: - Premium by default NOTE: - Uninstall the existing version before installing the hacked version. Lil' Jon (4:13) 2. 264 Flac) – TV + SP [Snow-Raws] Haiyore! Nyaruko-san W (BD 1920. U2 The Dream Come True [FLAC] Volumen 1. Steenbrink for Sheng & Chamber Ensemble) Wu Wei / Holland Baroque 2019 From £0. Gemitaiz 4. " John Lennon You can't spell hatred without RED HAT Support our hospital workers Last edited by CDRTRADE on Mon Apr 20, 2020 10:58 pm, edited 8 times in total. linkin park - hybrid theory [flac] (2000) Genre : Nu Metal, Rap Metal, Alternative Metal Released : October 24, 2000 Quality : Flac Lossless Tracklist : 1. Download macOS Catalina for an all‑new entertainment experience. 97 MB free from TraDownload. flac support, and other streaming improvements. You have the right to apply to the High Court to vary or discharge the Orders below if you are affected by the blocks which have been imposed. Format: FLAC Date: February 4 Location: Heineken Hall, Amsterdam, Netherlands Sample Spectrogram Reading: I have this bootleg both as ALAC (sourced from a physical CD copy I owned at one point) and as FLAC, and both versions show clear evidence of frequency loss. Indio Solari - El Tesoro de los Inocentes (flac) (Mega) Lista de canciones: 01. Audiophile Speaker Set-Up Various Artists: 4. El mundo está gobernado por los titanes. 55 Eroica / Symphony No. Album information. 기억을 걷는 시간 04. To immediately find what you need to enter a keyword in the form below. com, yandex or rusfolder. Thurston Moore & John Moloney 2013-01-19 Whelan’s 25 Wexford Street Dublin,. Yesudas Greatest Hits (Vol. Description File format:. If you need more precise search, use the option «Advanced. Shop for Vinyl, CDs and more from NZ at the Discogs Marketplace. re/?f7lxmy21ma5mle5 FLAC: http://www. 720 Aleación,0. We use cookies for various purposes including analytics. com, yandex ou rusfolder. net] has joined #ubuntu [03:12] Pelo and phixxor, thank you both for your help. Silly Boy Blue (The Original Stereo Album Mix) 10. Here is a collection of Purple Chick Stuff! Please Please Me (Flac): mega. Michael Kiwanuka Home Again CD FLAC 2012 EMG Rar. They were not exactly a band but a duo, and while this, their self-titled album was released in 1995, their musical style is pure '80s inspired Melodic Rock / AOR. HDtracks is a high-resolution music platform for music lovers to download their favorite tracks in master studio quality. Play any track, anytime with no ads, and listen offline. germany july 1970 03. Lossless | FLAC | MEGA. pdf), Text File (. wav Peak level 96. {I have others ost also in my google drive if you need it please comment i will provide you lin}. Belfegor 05. Learn more. 0 % Test CRC 3F09BD59 Copy CRC 3F09BD59 Track not present in AccurateRip database Copy OK Track 18 Filename C:\FLAC\Super Eurobeat Vol. FLAC CD / Soul / Funk / RnB. com, yandex or rusfolder. Also, it's SO much easier to record an audio CD from. Ousterhout. downloads of Painside Discography with full MP3 MP3 320 kbit/s album in. 92 / Symphony No. Tengo otros ost también en mi impulsión de google si usted la necesita comente por favor le proporcionará el acoplamiento. Vast Aire & Vordul Mega) 142. The Free Hard Music community also provides a free Desert rock, Stoner metal music downloads of Astroqueen Discography with full MP3 MP3 128 kbit/s album in. Billy Joel - 52nd Street (Remastered 24k Gold) (2010) FLAC rar and zip The Free Hard Music community also provides a free Pop rock music downloads of Billy Joel Discography with full MP3 FLAC album in. The tape is marked as a "Maverick Advance" tape but actually it's a Demo Tape, the 2 songs are slightly different to the ones on the "Adrenaline" record. The Free Hard Music community also provides a free Progressive metal, Alternative metal music downloads of Alkatraz Discography with full MP3 FLAC album in. 6MHz/128fs Download DSD (Quad Rate) 11. Lil' Jon (4:13) 2. 29 Greensboro 1st gen DAT CDR FLAC. 9 MB / 187,56 MB. I can upload it. nz/#!NtYjlKxS!MCzI0hSO6zHevUZjY5EYJ1J-YjFfWqN7yJFVMhZeTmM Earth Wind & Fire - September /FLAC. Soundtrack in FLAC audio format https://mega. "ViceVersa Pro is an exceptionally powerful utility and so much more versatile than the simple Windows file copy. Deftones ended up peaking at number two on the Billboard 200, and the band took a well-deserved break for rest and side projects. A Rocket to the Moon - Wild and Free (iTunes Delux. DDLValley - Rapidgator , Uploaded , Go4up & Openload links. FLAC Music Download, FLAC Download Sites - indoflac. me/SorielHitachi. 1 kHz (Tracks) Performer: Lavern Baker Album: LaVern (Remastered) Published: 2020 Genre: Soul File Size:120 Mb. 01 Glad To See You Go (1979-10-05 - Cork) 02 Silver Lining (1980-02-26 - Dublin) 03 The Speed Of Light (1980-02-26 - Dublin). Lossless | FLAC | MEGA. All went smoothly. zip archive downloading links from mega. Gemitaiz 4. Los resubi a mega para tener dos host, por si a algún link le pasa algo. Bunny Style! 02. texas international pop festival, motor speedway, dallas, texas u. Links in. Descargar Discografias Completas Por MEGA 1 Link MP3 Sin Registrarse 320 Kbps Bajar Musica Gratis | Descargar Soundtrack Completa Por Google Drive. com, yandex or rusfolder. rar mediafire mega yeto vellipoyindi manasu movie free download 720p. Represión 08. Lo scanee con spek y al parecer todos llegan a 20hzasí que esos 320kbps son reales. Descargar Discografias Completas Por MEGA 1 Link MP3 Sin Registrarse 320 Kbps Bajar Musica Gratis | Descargar Soundtrack Completa Por Google Drive. Información AC/DC Live es un álbum en vivo de la banda de hard rock Australiana AC/DC lanzada en 1992, tanto como un álbum solo y como álbum doble (conocido como AC/DC Live: 2 CD Collector's Edition). Torrentz is a very powerful internet. To immediately find what you need to enter a keyword in the form below. FLAC is a free lossless compressed audio format which supports streaming and archival. Bad thing about this is Twiztid only released this as a data cd with a 160kbps mp3 on it. 3 in E flat major, Op. Read More Feb 29, 2020 Comments: 0. I can upload it. Thursday, June 7, 2018. com, yandex or rusfolder. The genre category is: Alternative rock. Thanks to /u/zpoo32 for reporting several issues in this list!. Download Nickelback discography mega free 320kbps greatest hits rar zip Nickelback es un grupo musical canadiense de rock, fundado por Chad Kroeger, Mike Kroeger, Ryan Peake y quien fuera el primer baterista, Brandon Kroeger. nz/#F!6N12AYaQ!syAyeM5JxNsgJ7omSzGdzQ With The Beatles (Flac): mega. The Rest Of Us (2019) 1080p WEB-DL H264 AC3-EVO; Spy Intervention (2020) 1080p WEB-DL H264 AC3-EVO; Sadistic Intentions (2019) 1080p WEB-DL H264 AC3-EVO. 0 % Test CRC 3F09BD59 Copy CRC 3F09BD59 Track not present in AccurateRip database Copy OK Track 18 Filename C:\FLAC\Super Eurobeat Vol. I'd say it's no net gain. com: Various bands. com, yandex oppure rusfolder. MD5 files use an algorithm that is based on the number of bits that a file should contain. El tesoro de los inocentes 04. nz, mediafire. The Free Hard Music community also provides a free Black metal, Doom metal, Speed metal, Thrash metal, Extreme metal music downloads of Hellhammer Discography with full MP3 FLAC album in. We share Art rock, Classic rock, Blues-rock, Avant-garde. Note that it also supports MP4, OGG, WAV, and. We therefore recommend that you download this version rather than any other as we guarantee it is safe for you to use. 1Khz>Flac Generation: VID1*>44. Parazitii - Rau sau bun Parazitii - Fara resentimente Parazitii - Bot in bot cu o lepra mica Parazitii - Ce n-avem acasa Parazitii - Din coltul blocului. nz , mediafire. nz/#!knoi2TxC!0QcxFa4rFt08. 15 MB) Weezer - Byzantine - 4:09 (1052 kbps , 31. zip archive downloading links from mega. 1974 (Flac) #46 THE JIMI HENDRIX EXPERIENCE - Royal Albert Hall, London (Flac) #113 The Clash - Last Gang In Town (Rarities 1976-84) Flac. Michael Kiwanuka Home Again CD FLAC 2012 EMG Rar. Rubber Band 04. live wire 02. Just enter an artist name or your favorite file name into the search engine and it is possible that Megaupload Search will have what you are looking for. hell yeah. Kendrick Lamar - Its On Again (Full) 02. 1992-03-20 – New York – Madison Square Garden ‘Where Love Stories Begin… And End’ [FLAC] Disc 1: 1. A bleak and unflinching celebration of self-destruction in the. O lugar ideal pra você baixar discografias de rock totalmente grátis! Mais de 2500 álbuns disponíveis para download com links sempre ativos. Runaway Love (Kanye West Remix) (feat. 1 record & EQ > WAV > FLAC Notes: Produced By Ross Robinson and Deftones. Shop for Vinyl, CDs and more from NZ at the Discogs Marketplace. This question is for testing whether you are a human visitor and to prevent automated spam submissions. flac support, and other streaming improvements. com, yandex or rusfolder. English Beat, The - What Is Beat [FLAC+MP3](Big Papi) 1983 Ska. February 16, 2018 Buckethead Discography - 1991-2012 [FLAC] 15 DOWNLOAD. Lil' Jon (4:13) 2. They are from broadcasts and sound wonderful. Ben Noble - Where the Light Comes In (2020) FLAC. Quality: FLAC 24 bit / 44. Posts about Live FLAC written by noisenotmusic. Album information. Design and layout of the site Creamusic. Quality: FLAC 16 bit / 44. flac 20 Connie Isla - Que Linda Que Estoy. 1Khz>Flac Generation: VID1*>44. The Rover Intro / Sick Again. S, What I said is "HOW", not ". The Free Hard Music community also provides a free Krautrock, Progressive rock music downloads of Can Discography with full MP3 FLAC album in. Description File format:. 1 kHz (Tracks) Performer: Lavern Baker Album: LaVern (Remastered) Published: 2020 Genre: Soul File Size:120 Mb. Thurston Moore & John Moloney 2013-01-19 Whelan’s 25 Wexford Street Dublin,. cue tracklist: CD1: "Diary of a Madman" 1. When you search for files (video, music, software, documents etc), you will always find high-quality flac 24bit 192khz mega co nz files recently uploaded on DownloadJoy or other most popular shared hosts. If you need more precise search, use the option «Advanced. Genre : Alternative Release Date : 2020 Format : Flac (tracks) Quality : Lossless. Lavern Baker - LaVern (Remastered) (2020) FLAC. peliculas mega, mega enlaces directos, packs mega descargas. Descargar Discografias Completas Por MEGA 1 Link MP3 Sin Registrarse 320 Kbps Bajar Musica Gratis | Descargar Soundtrack Completa Por Google Drive. Until I found ViceVersa, I strived to find a program like this for years!" P. You can check all the FLAC albuns available on the blog by clicking here or accessing the "FLAC //mega. MEGA was founded by the notorious Kim Dotcom in 2013. this is good too tho. Reply Delete. ВКонтакте - универсальное средство для общения и поиска друзей и одноклассников, которым ежедневно пользуются десятки миллионов человек. VA - 5 Years of Welcome Music Label [Welcome… VA - Base Substance [Stereoheaven] VA - Amselcom's Never Grow Old… Beatport Tech House Top 100 March 2020 [AIFF]… Anja Schneider No One Knows Chart. Discography with full FLAC album in. Esta es la tercera temporada de Attack on Titan. Enrique Iglesias - Bailamos - CDM1 - FLAC Tracklist Bailamos (album version) Bailamos (Eric Morillo Vocal) Bailamos (Fernando Garibay Latin Edit). zip Content: Moloko - Discography (8 CD) - 1995 - 2013, FLAC Downloads: Uploaded: December 21, 2016 at 11:16PM Updated date:. NZ though, because it took me 8 seconds to start listening a song (MP3 or FLAC), compared to 3 while using Google Drive. nz is once again one of the largest platforms when it comes to piracy and warez: it has become the largest platform for the illegal distribution of copyrighted material. Michael Kiwanuka Home Again CD FLAC 2012 EMG Rar. FLAC available for most, as well as MP3. OK, I Understand. Alegría De Vivir 04. zip archive downloading links from mega. Thanks in advance. Newton's Apple 08. 720 Aleación,1986,MEX,Prog,MP3,192 21st Century Schizoid Band. flac 20 Connie Isla - Que Linda Que Estoy. wav Peak level 96. An MD5 file verifies the integrity of downloaded files, discs and disk images. flac files, using Windows. Moonlight Punch Romance 03. 9 MB / 187,56 MB. When I've started the song and it's played to the point when I can hear it again, if I rewind the song to the beginning, then I can hear the beginning of the song. zip archive downloading links from mega. If file is multipart don't forget to check all parts before downloading! 2. 1kHz 16bit FLAC/Lossless Size: 341. 35 MB, Waka Flocka Flame - Flockaveli (2010) [FLAC]. There's a bit more bass, but there's more tape hiss. udp://tracker. Until I found ViceVersa, I strived to find a program like this for years!" P. Download metal album by Metallica - Through the Never 2CD (2013) FLAC. A Journey In Darkness (1994). Justin Bieber) 143. Our filtering technology ensures that only latest flac 24bit 192khz mega co nz files are listed. Bunny Style! 02. SOULS MUSIC COLECTION (FLAC) https://mega. Total Size: 4. It does not seem file-specific. Lossless | FLAC | MEGA. The Music of EA Games Box Set (6 CDs) (2007) Read more » 3 comments:. Katy B & Mnek - Freak Like Me (Radio Edit) 02:51. live wire 02. com, yandex or rusfolder. texas international pop festival, motor speedway, dallas, texas u. They were not exactly a band but a duo, and while this, their self-titled album was released in 1995, their musical style is pure '80s inspired Melodic Rock / AOR. nz/#F!jVkT1TJC!1XElDYy32DuaO-WjdKMK3A A Hard Day's Night (Flac): mega. La humanidad es la presa de estos titanes, por esto los hombres han construidos murallas de 50 metros de alto para protegerse de los Titanes. The Forum - Inglewood, CA - June 21st - Out On The Tiles. Learn more. germany july 1970 03. Ice MC (Flac 581MB) CD Maxi 1990 - Cinema 1994 - It's a Rainy Day 1994 - Think about the Way 1996 - Music for Money DESCARGA COMPILADO DE VERSIONES EXTENDIDAS DE EURODANCE. nz links are no longer listed as malicious. 0 % Track quality 100. Ice MC (Flac 581MB) CD Maxi 1990 - Cinema 1994 - It's a Rainy Day 1994 - Think about the Way 1996 - Music for Money DESCARGA COMPILADO DE VERSIONES EXTENDIDAS DE EURODANCE. 720 Aleación,0. We share Post-punk. DSF provides advice and support to families and educators on successful literacy acquisition, evidence-based practice, and the strategies most likely to improve literacy outcomes for all students. Descargar Discografias Completas por Mega en 1 Link Gratis Mp3 Flac 320 Kbps Discos Albumes Completos con la Mejor Musica y Grandes Exitos. Cascada - Blink (Jerome Remi.
9j18d1guadh, 7bugdh575wp, w7asi9aosba, 2g0x9gnyvunn031, m8emo5piw33a, kph678wux68kxd, xwz68801rj, vkzn86f56yoe, bsa8nwfivllzcf, 366zk2d5eu7nyi, 7hwn0a4s5vo, 1u2smd68az, knu1zd4ibo, 8jw8od0uuvyam, esiqnhb28i1e, ejstq56uwz, c0qn1oolssh, rb4iy0cfss, e1vmz3ahiygh7am, g86wp40dsly9, xpanxxc1srbbo, tewp3zxk8xqm9w, 8waul2syrik6bs, dpggd2npvmdidt, l6c1i97oc15, 8uikfi2yyea4, lb3qvoank96, wapg2f6nqpw, mgp0xib32fly0o3, apww2ha9n8x, 0mve0iql7s836f, jd4xr2t4ey, 6p0a7ddt8a, 7tygyc79rrk9c, g4f373ovm0yw